Half Girlfriend 2017 Hindi HDRip x264 MP4

June 27, 2018 300MB Movies
DOWNLOAD
[ Download File ]

Half Girlfriend 2017 Hindi HDRip x264 MP4 1Half Girlfriend 2017 Hindi HDRip x264 MP4https://www.imdb.com/title/tt5474042/Half Girlfriend 2017 Hindi HDRip x264 MP4 2
General
Complete name : Half Girlfriend 2017 Hindi HDRip x264 MP4.mp4
Format : MPEG-4
Format profile : Base Media
Codec ID : isom (isom/iso2/avc1/mp41)
File size : 1.28 GiB
Duration : 2 h 22 min
Overall bit rate mode : Variable
Overall bit rate : 1 291 kb/s
Encoded date : UTC 1970-01-01 00:00:00
Tagged date : UTC 1970-01-01 00:00:00
Writing application : Lavf52.94.0
Video
ID : 1
Format : AVC
Format/Info : Advanced Video Codec
Format profile : [email protected]
Format settings : CABAC / 2 Ref Frames
Format settings, CABAC : Yes
Format settings, RefFrames : 2 frames
Codec ID : avc1
Codec ID/Info : Advanced Video Coding
Duration : 2 h 22 min
Bit rate : 1 104 kb/s
Width : 1 280 pixels
Height : 720 pixels
Display aspect ratio : 16:9
Frame rate mode : Variable
Frame rate : 29.970 (29970/1000) FPS
Minimum frame rate : 2.498 FPS
Maximum frame rate : 29.970 FPS
Color space : YUV
Chroma subsampling : 4:2:0
Bit depth : 8 bits
Scan type : Progressive
Bits/(Pixel*Frame) : 0.040
Stream size : 1.11 GiB (87%)
Writing library : x264 core 112 r1834 a51816a
Encoding settings : cabac=1 / ref=1 / deblock=1:0:0 / analyse=0x1:0 / me=dia / subme=2 / psy=1 / psy_rd=0.00:0.00 / mixed_ref=0 / me_range=16 / chroma_me=1 / trellis=0 / 8x8dct=0 / cqm=0 / deadzone=21,11 / fast_pskip=1 / chroma_qp_offset=0 / threads=12 / sliced_threads=0 / nr=0 / decimate=1 / interlaced=0 / constrained_intra=0 / bframes=3 / b_pyramid=0 / b_adapt=1 / b_bias=0 / direct=3 / weightb=0 / open_gop=0 / weightp=2 / keyint=250 / keyint_min=25 / scenecut=40 / intra_refresh=0 / rc_lookahead=40 / rc=abr / mbtree=1 / bitrate=1104 / ratetol=1.0 / qcomp=0.60 / qpmin=10 / qpmax=51 / qpstep=4 / ip_ratio=1.41 / aq=1:1.00
Encoded date : UTC 1970-01-01 00:00:00
Tagged date : UTC 1970-01-01 00:00:00
Audio
ID : 2
Format : AAC
Format/Info : Advanced Audio Codec
Format profile : LC
Codec ID : mp4a-40-2
Duration : 2 h 22 min
Bit rate mode : Variable
Bit rate : 165 kb/s
Channel(s) : 2 channels
Channel positions : Front: L R
Sampling rate : 48.0 kHz
Frame rate : 46.875 FPS (1024 SPF)
Compression mode : Lossy
Stream size : 168 MiB (13%)
Encoded date : UTC 1970-01-01 00:00:00
Tagged date : UTC 1970-01-01 00:00:00
Half Girlfriend 2017 Hindi HDRip x264 MP4 3Half Girlfriend 2017 Hindi HDRip x264 MP4 4 

Half Girlfriend 2017 Hindi HDRip x264 MP4 5 

Half Girlfriend 2017 Hindi HDRip x264 MP4 6 

Half Girlfriend 2017 Hindi HDRip x264 MP4 7 

Half Girlfriend 2017 Hindi HDRip x264 MP4 8 

Half Girlfriend 2017 Hindi HDRip x264 MP4 9 

Half Girlfriend 2017 Hindi HDRip x264 MP4 10 

Half Girlfriend 2017 Hindi HDRip x264 MP4 11 

Half Girlfriend 2017 Hindi HDRip x264 MP4 12 

Half Girlfriend 2017 Hindi HDRip x264 MP4 13Half Girlfriend 2017 Hindi HDRip x264 MP4 14Half Girlfriend 2017 Hindi HDRip x264 MP4 15
Openload Link – Clicknupload Link – Indishare Link – BDupload Link

The post Half Girlfriend 2017 Hindi HDRip x264 MP4 appeared first on moviesmb.com.

DOWNLOAD
[ Download File ]

Comments

Leave a Reply

Your email address will not be published. Required fields are marked *

You may also like